Allegro. No. No. Chopin David Fray. Similar items. $17.31. The third movement is based on C. P. E. Bach's piece La Boehmer, published in the early 1760s. Listen Details . 4.6 out of 5 stars 23. 3. J.S. Only 1 left in stock - order soon. Evgeni Koroliov, Kammerakademie Potsdam. 3 Trombe, Tamburi, 2 Hautb: Violino ConC. Largo is a popular song by David Fray | Create your own TikTok videos with the Bach, JS: Concerto for 4 Pianos in A Minor, BWV 1065: II. Johann Sebastian Bach Vikingur Olafsson. 4 (Bach); Concerto pour clavecin n° 4: Authorities WorldCat; Wikipedia; VIAF: 293831888; BNF: 13909443p: Composer Bach, Johann Sebastian: Opus/Catalogue Number Op./Cat. 3:58 Listen Now $1.29 In MP3 cart View MP3 Cart 2. Presto (Arranged for Piano 4 Hands) By Johann Sebastian Bach. 45. Bach: Concertos for Two, Three and Four Pianos By Johann Sebastian Bach (Composer) (1996-04-18) Audio CD $27.45 $ 27. 2 Violini, Viola e Cont."). 4 (K. 41) in G major. Bach arranged Vivaldi’s Op 3 No 10 (RV 580) to a concerto for 4 keyboards and strings (BWV 1065). Allegro assai Year/Date of Composition Y/D of Comp ... Related Works Arranged from Concerto for 2 Violins in D minor, BWV 1043 Navigation etc. Bach: Concertos for 3 & 4 pianos. Audio CD. Concertos by Johann Sebastian Bach; The Six Brandenburg Concertos. A Piano Duet for 2 pianos, 4 hands, composed by Johann Sebastian Bach. Let’s pause for a second and talk about Bach and Vivaldi. Article Categories: Saturday Morning Favorites. David Fray, Jacques Rouvier / Bach: Concertos for 2, 3 and 4 Pianos (13-15) -----DR Peak RMS Duration Track-----DR12 -1.71 dB -18.51 dB 3:24 07-Concerto for 2 Pianos in C Minor, BWV 1062 - I. Vivace DR12 -5.38 dB -22.14 dB 6:14 08-Concerto for 2 Pianos in C Minor, BWV 1062 - II. Allegro 03:13 4. Audio CD. Add to Cart Add to List. Concerto for 4 Piano in A minor - Allegro Johann Sebastian Bach. Product Details. Concerto for 4 Pianos in A Minor, BWV 1065: II. [PDF + MP3 (digital sound)] + Video - 2 pianos 4 hands (duet) - Baroque * License : Public Domain - Like Johann Sebastian Bach's better known Concerto in D minor, this work is thought to be a transcription of a lost concerto. Concerto for Two Pianos in C Minor By Johann Sebastian Bach Piano Duo (2 Pianos, 4 Hands) Book (2 copies required) Level: Advanced Item: 00-K03032. LIKE . 3 set, entitled L’estro armonico.Bach adapted them for solo harpsichord and solo organ, but for the Concerto for 4 violins in B minor, Op. Add to Cart Add to List. 4.2 out of 5 stars 41. 6 offers from £6.98. 1 in D Minor, BWV 1052: I. Allegro. Audio CD. David Fray (piano), Orchestre national du Capitole de Toulouse . Bach Les Concertos pour 3 et 4 Pianos - Beroff Collard Rigutto Tacchino - Ensemble orchestral de Paris Wallez Johann Sebastian Bach. Johann Sebastian Bach: Concerto In D Minor - 2 Pianos/4 Hands 2 Pianos, 4 hands [Score] Kalmus. EDITORS’ NOTES ... You can hear their magical interplay in the final movement of the Concerto for 4 Pianos—a transcription of a Vivaldi concerto—while the slow movement of the two-keyboard concerto BWV 1062 is utterly sublime. Allegro 05:00 7. By Johann Sebastian Bach. Andante e piano III. 5:03 PREVIEW Brandenburg Concerto No. 4.5 out of 5 stars 14. Larghetto III. Also Available Digitally. Share. Piano Duo (2 Pianos, 4 Hands) Book (2 copies required). Largo . Amazon Kindle. Today I’d like to share with you a concerto for four pianos by Johan Sebastian Bach (1685-1750). The Bach Fake Book Piano solo [Fake Book] Cherry Lane. In stock. £6.99. £9.72. 4. Bach, JS: Concerto for 4 Pianos in A Minor, BWV 1065: II. 4.8 out of 5 stars 151. 1 in D Minor, BWV 1052: II. Concerto for 3 Pianos in D Minor, BWV 1063: III. Next. Kinlei changed description of Bach/Vivaldi - BWV 1065 (Concerto for 4 Pianos) Solo Kinlei added Bach/Vivaldi - BWV 1065 (Concerto for 4 Pianos) Solo to Vivaldi Board Classical Qwerty It has generally been accepted that it is a reworking of a lost instrumental concerto, since Donald Francis Tovey first made the suggestion in 1935, when he proposed the oboe d'amore as the melody instrument. Product Details. Similar … Share. 3. BWV 1045, a movement in concerto form for violin and orchestra, is the opening of a cantata titled "Concerto" in Bach's autograph ("J J Concerto. Only 1 left in stock (more on the way). The piece was originally composed by Antonio Vivaldi (1678-1741) for four violins. Published by Alfred Publishing. Concerto for 3 Pianos in D Minor, BWV 1063: I. Concerto for 4 Pianos in A Minor, BWV 1065: III. Expertly arranged Piano Duet by Johann Sebastian Bach from the Kalmus Edition series. 1 - 5 Bwv 1052-1056 & No. 4 – arranged for piano by Eleonor Bindman Mozart's cadenzas for the concerto survive. $9.05. This Advanced Piano Duet (2 Pianos, 4 Hands) is from the Baroque era. Concerto for 4 Pianos in A Minor, BWV 1065: III. Largo ma non tanto DR12 -1.82 dB -17.81 dB 4:27 09-Concerto for 2 Pianos in C Minor, BWV 1062 - III. 2:53 Listen Now $1.29 In MP3 cart View MP3 Cart 3. 2018 Preview Editors' Notes J.S. à 4 Voci. The movements are: The keyboard concertos, BWV 1052–1065, are concertos for harpsichord (or organ), strings and continuo by Johann Sebastian Bach.There are seven complete concertos for a single harpsichord (BWV 1052–1058), three concertos for two harpsichords (BWV 1060–1062), two concertos for three harpsichords (BWV 1063 and 1064), and one concerto for four harpsichords (BWV 1065). Michel Beroff, Jean-Philippe Collard, Gabriel Tacchino, Bruno Rigutto (pianos) Ensemble Orchestral De Paris, Jean-Pierre Wallez. Buy a PDF sheet music edition of J.S. IJB 267 Key A major Movements/Sections Mov'ts/Sec's: 3 movements: I. Allegro II. Stream ad-free with Amazon Music Unlimited on mobile, desktop, and tablet. £12.93. SHARE. With fingerings. Bach: Andante from Brandenburg Concerto No. Piano duet score (two copies necessary for performance) for two pianos four-hands. 4.7 out of 5 stars 35. Usually despatched within 1 working day. Advanced. $3.99 shipping. Bach: Concertos for 2, 3 & 4 Pianos David Fray Classical 2018; Listen on Apple Music. 1 VORSCHAU Concerto No. 2019 Hörprobe TITEL LÄNGE Concerto No. Composed by Johann Sebastian Bach (1685-1750). Only 1 left in stock - order soon. Allegro. Listen to your favorite songs from Bach: Concertos For 2, 3, 4 Pianos & Strings by Maurizio Baglini, Gianluca Luisi, Marcello Mazzoni, Andrea Padova, Marco Scolastra, I Solisti Filarmonici Italiani & Federico Guglielmo Now. Description . 1 in D Minor, BWV 1052. 4.6 out of 5 stars 59. 10:20 PREVIEW Brandenburg Concerto No. Preview. 4 in G Major, BWV 1049: III. The music breaks off before the vocalists enter. Add CD to basket . 7 Bwv 1058 Gould. Listen Details. Largo song and explore 0 videos made by new and popular creators. 5. Johann Sebastian Bach (1685 - 1750): Concerto for 4 Pianos in A Minor, BWV 1065: 1 Bach, JS: Concerto for 4 Pianos in A Minor, BWV 1065: I. Allegro 03:57; 2 Bach, JS: Concerto for 4 Pianos in A Minor, BWV 1065: II. Amazon Kindle. Concerto No. Glenn Gould Plays Bach: Piano Concertos Nos. Piano : Martha Argerich, Evegeny Kissin, James Levine, Mikhail Pletnev. Largo. (1) $12.99 - See more - Buy online Pre-shipment lead time: 4 to 6 business days. No. Google Play. Unlike Bach's other harpsichord concertos, BWV 1055 has no known precursors, either as an instrumental concerto or as a movement with obbligato organ in a cantata. A Piano Duet for 2 pianos, 4 hands, composed by Johann Sebastian Bach. Bach - Swing, Sing and Think David Fray. Description . Bach – Concerto for 4 Pianos BWV 1065 (Argerich, Kissin, Levine, Pletnev), Verbier, July 22, 2002. Murray Perahia Plays Bach Concertos Perahia. Google Play. Sample Pages. Concerto for 4 Pianos in A Minor, BWV 1065: II. (earlier version of the Brandenburg Concerto No.1 in F major) Brandenburg Concerto No.2 in F major, BWV 1047 Brandenburg Concerto No.3 in G major, BWV 1048 Brandenburg Concerto No.4 in G major, BWV 1049 Brandenburg Concerto No.5 in D major, BWV 1050 Brandenburg Concerto No.5 in D major, BWV 1050a Brandenburg Concerto No.6 in B-flat major, BWV 1051 David Fray brings together a crack team of three fellow pianists and chamber orchestra for fresh, vital takes on these exhilarating works. $12.95 . Brandenburg Concerto No. 5 in D Major, BWV 1050: II. Bach: Concertos for 2, 3 & 4 Pianos. Digital Sheet Music. Both are superstars of the Baroque period. TITLE TIME; Concerto for 4 Pianos in A … 42 pages. 5 in D Major, BWV 1050: I. Allegro (Arranged for Piano 4 Hands) By Johann Sebastian Bach. For Piano 4 hands (Waldersee) ... Concert per a clavecí núm. Adagio. Concerto for 3 Pianos in D Minor, BWV 1063: II. Concerto for 4 Pianos in A Minor, BWV 1065: I. Allegro. The concerto is scored for strings, piano (or harpsichord) and pairs of horns and flutes. Digital Sheet Music. 3 No. PLAYLIST VIDEO. Amazing combination of the world's greatest legends of all time, performing Bach's Concerto For 4 Pianos BWV 1065. $14.99 - See more - Buy online Pre-shipment lead time: 24 hours - In Stock. David Fray: J.S. [No tempo indication] 05:17 5. $12.95 . Alla Siciliana 03:53 6. Bach-Vivaldi/Concerto for 4 Pianos/MultiPiano Ensemble. Evgeni Koroliov, Kammerakademie Potsdam. Johann Sebastian Bach made a number of transcriptions of Antonio Vivaldi’s concertos, especially from his Op. Composers: Antonio Vivaldi, Johann Sebastian Bach. 2 copies are required for performance. Listen on Apple Music. Or $2.97 to buy MP3. Audio CD. Catalogue No: 7470632; Label: Warner Classics; Length: 45 minutes; CD $11.00. MP3 Music Listen with Music Unlimited. Bach reworked his and other composers’ music for each of his concertos for two, three and four keyboards. Concerto for Two Pianos in C Major By Johann Sebastian Bach Piano Duo (2 Pianos, 4 Hands) Book (2 copies required) Level: Advanced Item: 00-K03031. Also Available Digitally. Contents. Download our mobile app now. Audio CD. BWV 1055 I-Catalogue Number I-Cat. Bach: Concerto for Piano and Orchestra No. Largo 02:53; 3 Bach, JS: Concerto for 4 Pianos in A Minor, BWV 1065: III. Concerto for 4 Pianos in A Minor, BWV 1065: III. DVD. Affetuoso (Arranged for Piano 4 Hands) By Johann Sebastian Bach. 4 in A Major, BWV 1055 (Digitally Remastered) by Johann Sebastian Bach.